UFC on Fox 26 720p WEB [UNTOUCHED]

Moderators: Rich666, PuroresuLove~!

Post Reply
User avatar
admin
Site Admin
Posts: 16332
Joined: 17 Sep 2013, 15:22

UFC on Fox 26 720p WEB [UNTOUCHED]

Post by admin » 17 Dec 2017, 10:14

UFC on Fox 26 720p WEB [UNTOUCHED]

Image
General : UFC.on.Fox.26.720p.WEB.[UNTOUCHED]
Format : MPEG-4
Format profile : Base Media
Codec ID : isom
File size : 3.47 GiB
Duration : 2h 21mn
Overall bit rate mode : Constant
Overall bit rate : 3 515 Kbps
Writing application : Lavf54.63.104

Video
ID : 1
Format : AVC
Format/Info : Advanced Video Codec
Format profile : High@L4.0
Format settings, CABAC : Yes
Format settings, ReFrames : 4 frames
Codec ID : avc1
Codec ID/Info : Advanced Video Coding
Duration : 2h 21mn
Bit rate mode : Constant
Bit rate : 3 372 Kbps
Width : 1 280 pixels
Height : 720 pixels
Display aspect ratio : 16:9
Frame rate mode : Variable
Frame rate : 29.970 fps
Minimum frame rate : 29.970 fps
Maximum frame rate : 30.000 fps
Color space : YUV
Chroma subsampling : 4:2:0
Bit depth : 8 bits
Scan type : Progressive
Bits/(Pixel*Frame) : 0.122
Stream size : 3.34 GiB (96%)

Audio
ID : 2
Format : AAC
Format/Info : Advanced Audio Codec
Format profile : LC
Codec ID : 40
Duration : 2h 21mn
Duration_LastFrame : -21ms
Bit rate mode : Constant
Bit rate : 125 Kbps
Channel count : 2 channels
Channel positions : Front: L R
Sampling rate : 48.0 KHz
Compression mode : Lossy
Stream size : 127 MiB (4%)
Language : English
Image

Code: Select all

.:: RAPiDGATOR.::.
https://rapidgator.net/file/548b301e0d4665670619771772f71dc5/UFC.on.Fox.26.part1.rar.html
https://rapidgator.net/file/8f4313b4a4ef21ffe9d1d131ab0d9526/UFC.on.Fox.26.part2.rar.html
https://rapidgator.net/file/52b75eb78550081362dea8164c2e21f5/UFC.on.Fox.26.part3.rar.html
https://rapidgator.net/file/83b38605715ee55374473f3869537fdc/UFC.on.Fox.26.part4.rar.html

.:: Keep2Share.::.
https://k2s.cc/file/241e61159e96b/UFC.on.Fox.26.part1.rar
https://k2s.cc/file/a0bf2b247868e/UFC.on.Fox.26.part2.rar
https://k2s.cc/file/7544878d2e083/UFC.on.Fox.26.part3.rar
https://k2s.cc/file/1dfbdc0b9b635/UFC.on.Fox.26.part4.rar

.:: RockFile [RESUME OK] ::.
http://linkshrink.net/75QnBj
http://linkshrink.net/7BQ25c
http://linkshrink.net/7vr3Sp
http://linkshrink.net/74bEgy

.:: ClickNupload [RESUME OK] ::.
http://linkshrink.net/7xeKdA
http://linkshrink.net/7UQvHH
http://linkshrink.net/79Mywn
http://linkshrink.net/7Q8eTe

Hello, if you enjoy browsing this site, please consider sending in a donation to help us pay for our monthly server costs.


BTC [BITCOIN]

394nBuCYgNn6frsWHE4fFx6L29rYzPKFYB

Thank you

mrmarty
Posts: 47
Joined: 23 Apr 2017, 05:24

Re: UFC on Fox 26 720p WEB [UNTOUCHED]

Post by mrmarty » 17 Dec 2017, 10:17

Thank You!

Post Reply