Bellator 215 720p 60FPS WEB h264-lulz

Moderators: Rich666, PuroresuLove~!

Post Reply
User avatar
admin
Site Admin
Posts: 18890
Joined: 17 Sep 2013, 15:22

Bellator 215 720p 60FPS WEB h264-lulz

Post by admin » 16 Feb 2019, 12:48

Bellator 215 720p 60FPS WEB h264-lulz

Image
Bellator 215
Mohegan Sun Arena, Uncasville, Conn.

- Matt Mitrione vs. Sergei Kharitonov
- Ion Pascu vs. Logan Storley
- Eduardo Dantas vs. Toby Misech
- John Douma vs. Mike Kimbel
- Cody Jones vs. Austin Vanderford

General
Complete name : E:\Bellator.215.720p.60FPS.WEB.h264-lulz.mkv
Format : Matroska
Format version : Version 4 / Version 2
File size : 3.20 GiB
Duration : 1 h 56 min
Overall bit rate mode : Variable
Overall bit rate : 3 944 kb/s
Encoded date : UTC 2019-02-16 06:06:01
Writing application : mkvmerge v28.2.0 ('The Awakening') 64-bit
Writing library : libebml v1.3.6 + libmatroska v1.4.9 / Lavf54.63.104

Video
ID : 1
Format : AVC
Format/Info : Advanced Video Codec
Format profile : High@L3.2
Format settings : CABAC / 3 Ref Frames
Format settings, CABAC : Yes
Format settings, RefFrames : 3 frames
Codec ID : V_MPEG4/ISO/AVC
Duration : 1 h 56 min
Bit rate mode : Variable
Bit rate : 3 812 kb/s
Maximum bit rate : 4 499 kb/s
Width : 1 280 pixels
Height : 720 pixels
Display aspect ratio : 16:9
Frame rate mode : Constant
Frame rate : 59.940 (59940/1000) FPS
Color space : YUV
Chroma subsampling : 4:2:0
Bit depth : 8 bits
Scan type : Progressive
Bits/(Pixel*Frame) : 0.069
Stream size : 3.09 GiB (97%)
Default : No
Forced : No

Audio
ID : 2
Format : AAC
Format/Info : Advanced Audio Codec
Format profile : LC
Codec ID : A_AAC-2
Duration : 1 h 56 min
Bit rate : 128 kb/s
Channel(s) : 2 channels
Channel positions : Front: L R
Sampling rate : 48.0 kHz
Frame rate : 46.875 FPS (1024 SPF)
Compression mode : Lossy
Stream size : 106 MiB (3%)
Default : Yes
Forced : No
Image

Code: Select all

.:: RAPiDGATOR.::.
https://rapidgator.net/file/650f6569fcc964dd3405f268a9096888/Bellator.215.720p.60FPS.WEB.h264-lulz.part1.rar
https://rapidgator.net/file/6e0bfeaca6d5ceadeda3dc6571fce878/Bellator.215.720p.60FPS.WEB.h264-lulz.part2.rar

.:: Keep2Share.::.
https://k2s.cc/file/32e942bd76e7d/Bellator.215.720p.60FPS.WEB.h264-lulz.part1.rar
https://k2s.cc/file/274f81b407545/Bellator.215.720p.60FPS.WEB.h264-lulz.part2.rar

.:: IntoUpload [RESUME OK] ::.
http://linkshrink.net/7ykez6
http://linkshrink.net/7PFBzQ

Hello, if you enjoy browsing this site, please consider sending in a donation to help us pay for our monthly server costs.


BTC [BITCOIN]

36fZ5ovphM3tsd7Ds5fNsRKLAmrsmMZfyi

Thank you

biiiz
Posts: 179
Joined: 22 Mar 2015, 17:51

Re: Bellator 215 720p 60FPS WEB h264-lulz

Post by biiiz » 16 Feb 2019, 17:27

Merci :)

sasa2k0
Posts: 55
Joined: 06 Jun 2015, 17:09

Re: Bellator 215 720p 60FPS WEB h264-lulz

Post by sasa2k0 » 17 Feb 2019, 17:23

thank you!

whitehill
Posts: 343
Joined: 05 Jan 2017, 01:55

Re: Bellator 215 720p 60FPS WEB h264-lulz

Post by whitehill » 18 Feb 2019, 21:00

Thanks very much!

Post Reply