Page 1 of 1

Bellator 239 Ruth vs Amosov 720p WEB h264 lulz

Posted: 22 Feb 2020, 12:48
by admin
Bellator 239 Ruth vs Amosov 720p WEB h264 lulz

Image
Bellator 239 Main Event:
170 lbs.: Ed Ruth (8-1) vs. Yaroslav Amosov (22-0)

Bellator 239 Main Card (9 p.m. ET):
155 lbs.: Brandon Girtz (16-8) vs. Myles Jury (17-5)
265 lbs.: Tyrell Fortune (8-0) vs. Timothy Johnson (12-6)
265 lbs.: Javy Ayala (11-7) vs. Valentin Moldavsky (8-1)

File Info.
Complete name : H:\Bellator.239.Ruth.vs.Amosov.720p.WEB.h264-lulz.mkv
Format : Matroska
Format version : Version 4 / Version 2
File size : 3.02 GiB
Duration : 1 h 41 min
Overall bit rate mode : Variable
Overall bit rate : 4 258 kb/s
Encoded date : UTC 2020-02-22 06:22:00
Writing application : mkvmerge v28.2.0 ('The Awakening') 64-bit
Writing library : libebml v1.3.6 + libmatroska v1.4.9

Video
ID : 1
Format : AVC
Format/Info : Advanced Video Codec
Format profile : Main@L4.1
Format settings : CABAC / 1 Ref Frames
Format settings, CABAC : Yes
Format settings, RefFrames : 1 frame
Codec ID : V_MPEG4/ISO/AVC
Duration : 1 h 41 min
Bit rate mode : Variable
Bit rate : 4 125 kb/s
Maximum bit rate : 4 500 kb/s
Width : 1 280 pixels
Height : 720 pixels
Display aspect ratio : 16:9
Frame rate mode : Constant
Frame rate : 59.940 (59940/1000) FPS
Color space : YUV
Chroma subsampling : 4:2:0
Bit depth : 8 bits
Scan type : Progressive
Bits/(Pixel*Frame) : 0.075
Stream size : 2.92 GiB (97%)
Language : English
Default : Yes
Forced : No

Audio
ID : 2
Format : AAC
Format/Info : Advanced Audio Codec
Format profile : LC
Codec ID : A_AAC-2
Duration : 1 h 41 min
Bit rate : 128 kb/s
Channel(s) : 2 channels
Channel positions : Front: L R
Sampling rate : 48.0 kHz
Frame rate : 46.875 FPS (1024 SPF)
Compression mode : Lossy
Stream size : 92.9 MiB (3%)
Language : English
Default : Yes
Forced : No
Image

Code: Select all

.:: RAPiDGATOR.::.
https://rapidgator.net/file/68dcdb6bec091f171da98a1f7e6e64b0/Bellator.239.Ruth.vs.Amosov.720p.WEB.h264-lulz.part1.rar
https://rapidgator.net/file/462d139d97d3dba41a410faf46e0c574/Bellator.239.Ruth.vs.Amosov.720p.WEB.h264-lulz.part2.rar

.:: Keep2Share.::.
https://k2s.cc/file/9562ebbae4b64/Bellator.239.Ruth.vs.Amosov.720p.WEB.h264-lulz.part2.rar
https://k2s.cc/file/964e86d33b5b3/Bellator.239.Ruth.vs.Amosov.720p.WEB.h264-lulz.part1.rar

.:: IntoUpload [RESUME OK] ::.
https://fc.lc/uDFViq
https://fc.lc/Oy4k

Re: Bellator 239 Ruth vs Amosov 720p WEB h264 lulz

Posted: 23 Feb 2020, 14:38
by Riddick
Thank u

Re: Bellator 239 Ruth vs Amosov 720p WEB h264 lulz

Posted: 23 Feb 2020, 19:52
by biiiz
Merci :)

Re: Bellator 239 Ruth vs Amosov 720p WEB h264 lulz

Posted: 22 Mar 2020, 17:27
by whitehill
Thank you