RiZiN FF WGP 2017 Final Round 720p WEB h264

Moderators: Rich666, PuroresuLove~!

Post Reply
User avatar
admin
Site Admin
Posts: 13969
Joined: 17 Sep 2013, 15:22

RiZiN FF WGP 2017 Final Round 720p WEB h264

Post by admin » 01 Jan 2018, 02:03

RiZiN FF WGP 2017 Final Round 720p WEB h264

Image
RIZIN World Grand Prix 2017 Final Round
Including long intermission of about 95 minutes for the full experience

General
Complete name : RiZiN.FF.WGP.2017.Final.Round.720p.WEB.h264.mp4
Format : MPEG-4
Format profile : Base Media
Codec ID : isom
File size : 6.53 GiB
Duration : 6h 32mn
Overall bit rate : 2 379 Kbps
Writing application : Lavf57.83.100

Video
ID : 1
Format : AVC
Format/Info : Advanced Video Codec
Format profile : High@L3.1
Format settings, CABAC : Yes
Format settings, ReFrames : 4 frames
Codec ID : avc1
Codec ID/Info : Advanced Video Coding
Duration : 6h 32mn
Bit rate : 2 239 Kbps
Width : 1 280 pixels
Height : 720 pixels
Display aspect ratio : 16:9
Frame rate mode : Variable
Frame rate : 29.970 fps
Minimum frame rate : 29.412 fps
Maximum frame rate : 1 000.000 fps
Color space : YUV
Chroma subsampling : 4:2:0
Bit depth : 8 bits
Scan type : Progressive
Bits/(Pixel*Frame) : 0.081
Stream size : 6.14 GiB (94%)

Audio
ID : 2
Format : AAC
Format/Info : Advanced Audio Codec
Format profile : LC
Codec ID : 40
Duration : 6h 32mn
Bit rate mode : Constant
Bit rate : 128 Kbps
Channel(s) : 2 channels
Channel positions : Front: L R
Sampling rate : 48.0 KHz
Compression mode : Lossy
Stream size : 361 MiB (5%)
Image

Code: Select all

.:: RAPiDGATOR.::.
https://rapidgator.net/file/21d4bb4df8dc1aaebc73b447cb4e9d2b/RiZiN.FF.WGP.2017.Final.Round.720p.WEB.h264.part1.rar.html
https://rapidgator.net/file/c985c41ce2619cb6bcc9fab962788d23/RiZiN.FF.WGP.2017.Final.Round.720p.WEB.h264.part2.rar.html

.:: Keep2Share.::.
https://k2s.cc/file/6ab0b133e9c90/RiZiN.FF.WGP.2017.Final.Round.720p.WEB.h264.part1.rar
https://k2s.cc/file/2e0210199acae/RiZiN.FF.WGP.2017.Final.Round.720p.WEB.h264.part2.rar

Hello, if you enjoy browsing this site, please consider sending in a donation to help us pay for our monthly server costs.

Please private message me
Paypal only.Thank you

mrmarty
Posts: 32
Joined: 23 Apr 2017, 05:24

Re: RiZiN FF WGP 2017 Final Round 720p WEB h264

Post by mrmarty » 01 Jan 2018, 17:10

Thanks!

BobbySixKiller
Posts: 99
Joined: 17 Oct 2013, 18:29

Re: RiZiN FF WGP 2017 Final Round 720p WEB h264

Post by BobbySixKiller » 01 Jan 2018, 17:57

Cheers

BobbySixKiller
Posts: 99
Joined: 17 Oct 2013, 18:29

Re: RiZiN FF WGP 2017 Final Round 720p WEB h264

Post by BobbySixKiller » 01 Jan 2018, 17:58

Cheers

Post Reply