LFA.30.Millender.vs.Barnes.720p

Moderators: Rich666, PuroresuLove~!

Post Reply
User avatar
admin
Site Admin
Posts: 13969
Joined: 17 Sep 2013, 15:22

LFA.30.Millender.vs.Barnes.720p

Post by admin » 14 Jan 2018, 11:27

LFA.30.Millender.vs.Barnes.720p
This is from ASXtv on Jan 12th. TV updated during the event, but literally nothing was missed! :)

[General] Complete name : LFA.30.Millender.vs.Barnes.720p.mp4
Format : MPEG-4
Format profile : Base Media
Codec ID : isom (isom/iso2/avc1/mp41)
File size : 1.17 GiB
Duration : 2 h 48 min
Overall bit rate : 997 kb/s

[Video] ID : 1
Format : AVC
Format/Info : Advanced Video Codec
Format profile : High@L3.1
Format settings, CABAC : Yes
Format settings, ReFrames : 4 frames
Codec ID : avc1
Codec ID/Info : Advanced Video Coding
Duration : 2 h 48 min
Bit rate : 857 kb/s
Width : 1 280 pixels
Height : 720 pixels
Display aspect ratio : 16:9
Frame rate mode : Variable
Frame rate : 30.000 FPS
Minimum frame rate : 3.750 FPS
Maximum frame rate : 30.000 FPS
Color space : YUV
Chroma subsampling : 4:2:0
Bit depth : 8 bits
Scan type : Progressive
Bits/(Pixel*Frame) : 0.031
Stream size : 1.01 GiB (86%)

[Audio] ID : 2
Format : AAC
Format/Info : Advanced Audio Codec
Format profile : LC
Codec ID : 40
Duration : 2 h 48 min
Bit rate mode : Constant
Bit rate : 132 kb/s
Channel(s) : 2 channels
Channel positions : Front: L R
Sampling rate : 44.1 kHz
Frame rate : 43.066 FPS (1024 spf)
Compression mode : Lossy
Stream size : 158 MiB (13%)
Image

Code: Select all

.:: RAPiDGATOR.::.
https://rapidgator.net/file/6f742991e84354a26f4b7bbeb2ae8bed/LFA.30.Millender.vs.Barnes.720p.mp4.html

.:: Keep2Share.::.
https://k2s.cc/file/fef8162d272a3/LFA.30.Millender.vs.Barnes.720p.mp4

Hello, if you enjoy browsing this site, please consider sending in a donation to help us pay for our monthly server costs.

Please private message me
Paypal only.Thank you

Post Reply