KSW 44 The Game 2018 PL 09 06 2018

Moderators: Rich666, PuroresuLove~!

Post Reply
User avatar
admin
Site Admin
Posts: 15123
Joined: 17 Sep 2013, 15:22

KSW 44 The Game 2018 PL 09 06 2018

Post by admin » 10 Jun 2018, 21:28

KSW 44 The Game 2018 PL 09 06 2018

Image
General
Complete name : KSW.44.The.Game.2018.PL.09.06.2018.480p.PPV.HDTV.XviD.AC3-B666.avi
Format : AVI
Format/Info : Audio Video Interleave
Format profile : OpenDML
File size : 2.89 GiB
Duration : 4 h 10 min
Overall bit rate : 1 648 kb/s
Writing application : VirtualDubMod 1.5.10.2 (build 2540/release)
Writing library : VirtualDubMod build 2540/release
IsTruncated : Yes

Video
ID : 0
Format : MPEG-4 Visual
Format profile : Advanced Simple@L5
Format settings : BVOP1
Format settings, BVOP : 1
Format settings, QPel : No
Format settings, GMC : No warppoints
Format settings, Matrix : Default (MPEG)
Codec ID : XVID
Codec ID/Hint : XviD
Duration : 4 h 10 min
Bit rate : 1 382 kb/s
Width : 720 pixels
Height : 400 pixels
Display aspect ratio : 16:9
Frame rate : 25.000 FPS
Color space : YUV
Chroma subsampling : 4:2:0
Bit depth : 8 bits
Scan type : Progressive
Compression mode : Lossy
Bits/(Pixel*Frame) : 0.192
Stream size : 2.42 GiB (84%)
Writing library : XviD 67

Audio
ID : 1
Format : AC-3
Format/Info : Audio Coding 3
Format settings, Endianness : Big
Codec ID : 2000
Duration : 4 h 10 min
Bit rate mode : Constant
Bit rate : 192 kb/s
Channel(s) : 2 channels
Channel positions : Front: L R
Sampling rate : 48.0 kHz
Frame rate : 31.250 FPS (1536 SPF)
Bit depth : 16 bits
Compression mode : Lossy
Stream size : 344 MiB (12%)
Alignment : Split accross interleaves
Service kind : Complete Main
Image

Code: Select all

.:: RAPiDGATOR.::.
https://rapidgator.net/file/26da6ad8d4381805d5d1d951e2f92b72/KSW.44.The.Game.2018.PL.09.06.2018.480p.PPV.HDTV.XviD.AC3-B666.avi.html

.:: Keep2Share.::.
https://k2s.cc/file/cacbe0bdeb18c/KSW.44.The.Game.2018.PL.09.06.2018.480p.PPV.HDTV.XviD.AC3-B666.avi

Hello, if you enjoy browsing this site, please consider sending in a donation to help us pay for our monthly server costs.

Please private message me
BTC [BITCOIN].Thank you

Post Reply