PFL 3 Shields vs Cooper 2018 720p WEBRip H264-lulz

Moderators: Rich666, PuroresuLove~!

Post Reply
User avatar
admin
Site Admin
Posts: 15989
Joined: 17 Sep 2013, 15:22

PFL 3 Shields vs Cooper 2018 720p WEBRip H264-lulz

Post by admin » 06 Jul 2018, 13:48

PFL 3 Shields vs Cooper 2018 720p WEBRip H264-lulz

Image
720p60

PFL took place Thursday July 5th from the Charles E. Smith Center in Washington D.C. The event was headlined by a welterweight bout between Jake Shields and Ray Cooper and the main card aired live on NBC Sports.

- Jake Shields vs Ray Cooper III - Welterweight
- Abubakar Nurmagomedov vs Pavel Kusch - Welterweight
- Rick Story vs Yuri Villefort - Welterweight
- Shamil Gamzatov vs Eddie Gordon - Middleweight
- John Howard vs Gasan Umalatov - Middleweight

General
Complete name : D:\PFL.3.Shields.vs.Cooper.2018.720p.WEBRip.H264-lulz.mkv
Format : Matroska
Format version : Version 4 / Version 2
File size : 4.56 GiB
Duration : 2 h 10 min
Overall bit rate : 4 988 kb/s
Encoded date : UTC 2018-07-06 06:55:30
Writing application : mkvmerge v13.0.0 ('The Juggler') 64bit
Writing library : libebml v1.3.4 + libmatroska v1.4.5

Video
ID : 1
Format : AVC
Format/Info : Advanced Video Codec
Format profile : Main@L3.1
Format settings, CABAC : Yes
Format settings, RefFrames : 1 frame
Codec ID : V_MPEG4/ISO/AVC
Duration : 2 h 10 min
Bit rate : 4 888 kb/s
Width : 1 280 pixels
Height : 720 pixels
Display aspect ratio : 16:9
Frame rate mode : Variable
Frame rate : 59.940 FPS
Color space : YUV
Chroma subsampling : 4:2:0
Bit depth : 8 bits
Scan type : Progressive
Bits/(Pixel*Frame) : 0.088
Stream size : 4.46 GiB (98%)
Default : Yes
Forced : No

Audio
ID : 2
Format : AAC
Format/Info : Advanced Audio Codec
Format profile : LC
Codec ID : A_AAC
Duration : 2 h 10 min
Bit rate : 96.0 kb/s
Channel(s) : 2 channels
Channel positions : Front: L R
Sampling rate : 48.0 kHz
Frame rate : 46.875 FPS (1024 SPF)
Compression mode : Lossy
Delay relative to video : 2 ms
Stream size : 89.8 MiB (2%)
Default : Yes
Forced : No
Image

Code: Select all

.:: RAPiDGATOR.::.
https://rapidgator.net/file/4741252452103e11c59c4a733166777c/PFL.3.Shields.vs.Cooper.2018.720p.WEBRip.H264-lulz.mkv.html

.:: Keep2Share.::.
https://k2s.cc/file/0f6a028c4143e/PFL.3.Shields.vs.Cooper.2018.720p.WEBRip.H264-lulz.mkv 

Hello, if you enjoy browsing this site, please consider sending in a donation to help us pay for our monthly server costs.


BTC [BITCOIN]

394nBuCYgNn6frsWHE4fFx6L29rYzPKFYB

Thank you

hindsightufuk
Posts: 20
Joined: 03 Oct 2013, 23:25

Re: PFL 3 Shields vs Cooper 2018 720p WEBRip H264-lulz

Post by hindsightufuk » 06 Jul 2018, 16:30

Nice and early, cheers guys

Post Reply