ONE FC 78 Beyond The Horizon 720p WEB-DL x264-P3p3

Moderators: Rich666, PuroresuLove~!

Post Reply
User avatar
admin
Site Admin
Posts: 16806
Joined: 17 Sep 2013, 15:22

ONE FC 78 Beyond The Horizon 720p WEB-DL x264-P3p3

Post by admin » 08 Sep 2018, 22:57

ONE FC 78 Beyond The Horizon 720p WEB-DL x264-P3p3

Image
Format : MPEG-4
File size : 3.93 GiB
Duration : 3 h 57 min
Overall bit rate : 2 367 kb/s

Video
Format : AVC
Format profile : Main@L3.1
Bit rate : 2 235 kb/s
Width : 1 280 pixels
Height : 720 pixels
Display aspect ratio : 16:9
Frame rate : 30.000 FPS
Chroma subsampling : 4:2:0
Bit depth : 8 bits
Stream size : 3.71 GiB (94%)

Audio
Format : AAC
Format/Info : Advanced Audio Codec
Format profile : LC
Duration : 3 h 57 min
Bit rate mode : Constant
Bit rate : 125 kb/s
Channel(s) : 2 channels
Channel positions : Front: L R
Sampling rate : 48.0 kHz
Stream size : 213 MiB (5%)
Image

Code: Select all

.:: RAPiDGATOR.::.
https://rapidgator.net/file/b24514d992b377a031a9e227d81e6107/ONE_Championship_78_Beyond_The_Horizon_720p_WEB-DL_x264-P3p3.mp4.html

.:: Keep2Share.::.
https://k2s.cc/file/b6a9ee6f37733/ONE_Championship%2078%20Beyond%20The%20Horizon%20720p%20WEB-DL%20x264-P3p3.mp4

Hello, if you enjoy browsing this site, please consider sending in a donation to help us pay for our monthly server costs.


BTC [BITCOIN]

394nBuCYgNn6frsWHE4fFx6L29rYzPKFYB

Thank you

Post Reply