Page 1 of 1

PFL 11 2018 WEB-DL 720p h264-P3p3

Posted: 01 Jan 2019, 13:01
by admin
PFL 11 2018 WEB-DL 720p h264-P3p3

Image
General
Complete name : PFL 11.mp4
Format : MPEG-4
Format profile : Base Media
Codec ID : isom (isom/iso2/avc1/mp41)
File size : 2.97 GiB
Duration : 4 h 21 min
Overall bit rate : 1 624 kb/s
Writing application : Lavf57.71.100

Video
Format : AVC
Format profile : Main@L3.1
Duration : 4 h 21 min
Bit rate : 1 553 kb/s
Width : 1 280 pixels
Height : 720 pixels
Display aspect ratio : 16:9
Frame rate mode : Variable
Frame rate : 30.000 FPS
Minimum frame rate : 29.412 FPS
Maximum frame rate : 30.303 FPS
Color space : YUV
Chroma subsampling : 4:2:0
Bit depth : 8 bits
Bits/(Pixel*Frame) : 0.056
Stream size : 2.84 GiB (96%)

Audio
Format : AAC
Format profile : HE-AAC / LC
Duration : 4 h 21 min
Bit rate mode : Constant
Bit rate : 64.0 kb/s
Channel(s) : 2 channels
Sampling rate : 48.0 kHz / 24.0 kHz
Stream size : 120 MiB (4%)

Happy New Years!
Image

Code: Select all

.:: RAPiDGATOR.::.
https://rapidgator.net/file/b126157ce00d49105a471eff00ef5fc8/PFL_11.mp4

.:: Keep2Share.::.
https://k2s.cc/file/19c03dc52a3c7/PFL_11.mp4

Re: PFL 11 2018 WEB-DL 720p h264-P3p3

Posted: 01 Jan 2019, 13:11
by EriksR
👍

Re: PFL 11 2018 WEB-DL 720p h264-P3p3

Posted: 01 Jan 2019, 13:32
by mrmarty
Thank You!

"Happy New Year" To all!

Re: PFL 11 2018 WEB-DL 720p h264-P3p3

Posted: 01 Jan 2019, 15:35
by hindsightufuk
Awesome, nice and early, best wishes to everyone this year

Peace

Re: PFL 11 2018 WEB-DL 720p h264-P3p3

Posted: 10 Jan 2019, 04:06
by nektarine
Thanks for this. Very good event and good series overall.