GLORY 50 Chicago 720p WEB.DL x264 ORG

Moderators: Rich666, PuroresuLove~!

Post Reply
User avatar
admin
Site Admin
Posts: 15980
Joined: 17 Sep 2013, 15:22

GLORY 50 Chicago 720p WEB.DL x264 ORG

Post by admin » 18 Feb 2018, 12:28

GLORY 50 Chicago 720p WEB.DL x264 ORG

Image
General
Format : MPEG-4
Format profile : Base Media
Codec ID : isom (isom/iso2/avc1/mp41)
File size : 1.72 GiB
Duration : 1 h 59 min
Overall bit rate mode : Variable
Overall bit rate : 2 067 kb/s
Writing application : Lavf57.71.100

Video
Format : AVC
Format/Info : Advanced Video Codec
Format profile : Main@L3.1
Format settings, CABAC : Yes
Format settings, ReFrames : 3 frames
Format settings, GOP : M=1, N=25
Codec ID : avc1
Codec ID/Info : Advanced Video Coding
Duration : 1 h 59 min
Bit rate : 2 000 kb/s
Width : 1 280 pixels
Height : 720 pixels
Display aspect ratio : 16:9
Frame rate mode : Constant
Frame rate : 25.000 FPS
Color space : YUV
Chroma subsampling : 4:2:0
Bit depth : 8 bits
Scan type : Progressive
Bits/(Pixel*Frame) : 0.087
Stream size : 1.67 GiB (97%)

Audio
Format : AAC
Format/Info : Advanced Audio Codec
Format profile : LC
Codec ID : 40
Duration : 1 h 59 min
Bit rate mode : Variable
Bit rate : 61.4 kb/s
Maximum bit rate : 62.7 kb/s
Channel(s) : 2 channels
Channel positions : Front: L R
Sampling rate : 44.1 kHz
Frame rate : 43.066 FPS (1024 spf)
Compression mode : Lossy
Stream size : 52.4 MiB (3%)
Image

Code: Select all

.:: RAPiDGATOR.::.
https://rapidgator.net/file/f900ce04c429830cf93360c2bdc9a07f/GLORY.50.Chicago.720p.WEB.DL.x264-ORG.rar.html

.:: Keep2Share.::.
https://k2s.cc/file/cf3f7c311847b/GLORY.50.Chicago.720p.WEB.DL.x264-ORG.rar 

.:: XeUpload [RESUME OK] ::.
http://linkshrink.net/7BniUl

.:: OpenLoad [RESUME OK] ::.
http://linkshrink.net/7A5GvF

Hello, if you enjoy browsing this site, please consider sending in a donation to help us pay for our monthly server costs.


BTC [BITCOIN]

394nBuCYgNn6frsWHE4fFx6L29rYzPKFYB

Thank you

RKO
Posts: 128
Joined: 02 Jun 2015, 10:17

Re: GLORY 50 Chicago 720p WEB.DL x264 ORG

Post by RKO » 19 Feb 2018, 06:56

THANKS a million !!! for the main card !!!

Post Reply