Bipolar Rock N Roller 2018 720p AMZN WEB-DL DDP5 1 H 264-NTG

Moderators: Rich666, PuroresuLove~!

Post Reply
User avatar
admin
Site Admin
Posts: 15980
Joined: 17 Sep 2013, 15:22

Bipolar Rock N Roller 2018 720p AMZN WEB-DL DDP5 1 H 264-NTG

Post by admin » 27 May 2018, 12:18

Bipolar Rock N Roller 2018 720p AMZN WEB-DL DDP5 1 H 264-NTG

Image
A raw and unflinching account of Mauro Ranallo's decades-long struggle with Bipolar Affective Disorder. The voice of WWE and Showtime Championship Boxing, Ranallo has called some of the biggest sports events in history - all the while fighting his own epic battles with mental health. Follow his journey as he combats the stigma behind mental health issues and sheds light on what it's like being at the top of the industry despite seemingly insurmountable odds.

General
Unique ID : 80280666589622976275000104778898160192 (0x3C657E751509B77CA3C85582C56D3A40)
Complete name : Bipolar.Rock.N.Roller.2018.720p.AMZN.WEB-DL.DDP5.1.H.264-NTG.mkv
Format : Matroska
Format version : Version 4 / Version 2
File size : 1.93 GiB
Duration : 1 h 10 min
Overall bit rate : 3 887 kb/s
Encoded date : UTC 2018-05-26 01:48:40
Writing application : mkvmerge v21.0.0 ('Tardigrades Will Inherit The Earth') 64-bit
Writing library : libebml v1.3.5 + libmatroska v1.4.8

Video
ID : 1
Format : AVC
Format/Info : Advanced Video Codec
Format profile : High@L3.1
Format settings : CABAC / 5 Ref Frames
Format settings, CABAC : Yes
Format settings, ReFrames : 5 frames
Codec ID : V_MPEG4/ISO/AVC
Duration : 1 h 10 min
Bit rate : 3 245 kb/s
Width : 1 280 pixels
Height : 720 pixels
Display aspect ratio : 16:9
Frame rate mode : Constant
Frame rate : 23.976 (24000/1001) FPS
Color space : YUV
Chroma subsampling : 4:2:0
Bit depth : 8 bits
Scan type : Progressive
Bits/(Pixel*Frame) : 0.147
Stream size : 1.61 GiB (83%)
Default : Yes
Forced : No
Color range : Limited
Color primaries : BT.709
Transfer characteristics : BT.709
Matrix coefficients : BT.709

Audio
ID : 2
Format : E-AC-3
Format/Info : Enhanced Audio Coding 3
Codec ID : A_EAC3
Duration : 1 h 10 min
Bit rate mode : Constant
Bit rate : 640 kb/s
Channel(s) : 6 channels
Channel positions : Front: L C R, Side: L R, LFE
Sampling rate : 48.0 kHz
Frame rate : 187.500 FPS (256 SPF)
Compression mode : Lossy
Stream size : 325 MiB (16%)
Language : English
Service kind : Complete Main
Default : Yes
Forced : No

Text #1
ID : 3
Format : UTF-8
Codec ID : S_TEXT/UTF8
Codec ID/Info : UTF-8 Plain Text
Duration : 1 h 10 min
Bit rate : 96 b/s
Count of elements : 1430
Stream size : 49.4 KiB (0%)
Language : English
Default : No
Forced : No

Text #2
ID : 4
Format : UTF-8
Codec ID : S_TEXT/UTF8
Codec ID/Info : UTF-8 Plain Text
Duration : 1 h 10 min
Bit rate : 100 b/s
Count of elements : 1486
Stream size : 51.8 KiB (0%)
Title : SDH
Language : English
Default : No
Forced : No
Image

Code: Select all

.:: RAPiDGATOR ::.
https://rapidgator.net/file/7de4f285ceb862d10f5ce866876351bb/Bipolar.Rock.N.Roller.2018.720p.AMZN.WEB-DL.DDP5.1.H.264-NTG.rar.html

.:: Keep2Share.::.
https://k2s.cc/file/494f8aaacec3e/Bipolar.Rock.N.Roller.2018.720p.AMZN.WEB-DL.DDP5.1.H.264-NTG.rar

Hello, if you enjoy browsing this site, please consider sending in a donation to help us pay for our monthly server costs.


BTC [BITCOIN]

394nBuCYgNn6frsWHE4fFx6L29rYzPKFYB

Thank you


AryaStark
Posts: 220
Joined: 21 Mar 2015, 23:10

Re: Bipolar Rock N Roller 2018 720p AMZN WEB-DL DDP5 1 H 264-NTG

Post by AryaStark » 27 May 2018, 15:45

Thanks.

Landvogt
Posts: 50
Joined: 02 Apr 2015, 21:05

Re: Bipolar Rock N Roller 2018 720p AMZN WEB-DL DDP5 1 H 264-NTG

Post by Landvogt » 27 May 2018, 18:33

Big time Thank You!

BobbySixKiller
Posts: 153
Joined: 17 Oct 2013, 18:29

Re: Bipolar Rock N Roller 2018 720p AMZN WEB-DL DDP5 1 H 264-NTG

Post by BobbySixKiller » 28 May 2018, 01:15

Thank you so much

Post Reply