ROH.2018.06.16.State.Of.The.Art.Dallas.1080p.WEB.h264-HEEL

Moderators: Rich666, PuroresuLove~!

Post Reply
User avatar
admin
Site Admin
Posts: 16007
Joined: 17 Sep 2013, 15:22

ROH.2018.06.16.State.Of.The.Art.Dallas.1080p.WEB.h264-HEEL

Post by admin » 17 Jun 2018, 22:57

ROH.2018.06.16.State.Of.The.Art.Dallas.1080p.WEB.h264-HEEL
General
Complete name : ROH.2018.06.16.State.Of.The.Art.Dallas.1080p.WEB.h264-HEEL.mp4
Format : MPEG-4
Format profile : Base Media
Codec ID : isom (isom/iso2/avc1/mp41)
File size : 6.70 GiB
Duration : 3 h 19 min
Overall bit rate : 4 823 kb/s
Writing application : Lavf58.2.103

Video
ID : 1
Format : AVC
Format/Info : Advanced Video Codec
Format profile : High@L4
Format settings : CABAC / 4 Ref Frames
Format settings, CABAC : Yes
Format settings, RefFrames : 4 frames
Codec ID : avc1
Codec ID/Info : Advanced Video Coding
Duration : 3 h 19 min
Bit rate : 4 683 kb/s
Width : 1 920 pixels
Height : 1 080 pixels
Display aspect ratio : 16:9
Frame rate mode : Variable
Frame rate : 30.000 FPS
Minimum frame rate : 19.231 FPS
Maximum frame rate : 30.303 FPS
Color space : YUV
Chroma subsampling : 4:2:0
Bit depth : 8 bits
Scan type : Progressive
Bits/(Pixel*Frame) : 0.075
Stream size : 6.51 GiB (97%)

Audio
ID : 2
Format : AAC
Format/Info : Advanced Audio Codec
Format profile : LC
Codec ID : mp4a-40-2
Duration : 3 h 19 min
Bit rate mode : Constant
Bit rate : 129 kb/s
Channel(s) : 2 channels
Channel positions : Front: L R
Sampling rate : 48.0 kHz
Frame rate : 46.875 FPS (1024 SPF)
Compression mode : Lossy
Stream size : 184 MiB (3%)
Default : Yes
Alternate group : 1
Image

Code: Select all

.:: RAPiDGATOR.::.
https://rapidgator.net/file/2eaaf87257bf218f648727da0639dfba/ROH.2018.06.16.State.Of.The.Art.Dallas.1080p.WEB.h264-HEEL.part1.rar.html
https://rapidgator.net/file/9431fc5fc82b65e813fd27de53949422/ROH.2018.06.16.State.Of.The.Art.Dallas.1080p.WEB.h264-HEEL.part2.rar.html

.:: Keep2Share.::.
https://k2s.cc/file/27747ddb2f184/ROH.2018.06.16.State.Of.The.Art.Dallas.1080p.WEB.h264-HEEL.part1.rar 
https://k2s.cc/file/5a7da070dfae4/ROH.2018.06.16.State.Of.The.Art.Dallas.1080p.WEB.h264-HEEL.part2.rar 

Hello, if you enjoy browsing this site, please consider sending in a donation to help us pay for our monthly server costs.


BTC [BITCOIN]

394nBuCYgNn6frsWHE4fFx6L29rYzPKFYB

Thank you

Post Reply