EVOLVE.106.2018.06.23.720p.WEB.h264-iNDYHEEL

Moderators: Rich666, PuroresuLove~!

Post Reply
PuroresuLove~!
Posts: 4923
Joined: 22 Sep 2013, 23:35

EVOLVE.106.2018.06.23.720p.WEB.h264-iNDYHEEL

Post by PuroresuLove~! » 24 Jun 2018, 13:46

EVOLVE.106.2018.06.23.720p.WEB.h264-iNDYHEEL

Image
Complete name : EVOLVE.106.2018.06.23.720p.WEB.h264-iNDYHEEL.mp4
Format : MPEG-4
Format profile : Base Media
Codec ID : isom (isom)
File size : 2.88 GiB
Duration : 3 h 0 min
Overall bit rate mode : Variable
Overall bit rate : 2 286 kb/s

Video
ID : 1
Format : AVC
Format/Info : Advanced Video Codec
Format profile : High@L3.1
Format settings : CABAC / 4 Ref Frames
Format settings, CABAC : Yes
Format settings, RefFrames : 4 frames
Codec ID : avc1
Codec ID/Info : Advanced Video Coding
Duration : 3 h 0 min
Source duration : 3 h 0 min
Bit rate : 2 154 kb/s
Maximum bit rate : 3 932 kb/s
Width : 1 280 pixels
Height : 720 pixels
Display aspect ratio : 16:9
Frame rate mode : Variable
Frame rate : 29.970 FPS
Minimum frame rate : 29.412 FPS
Maximum frame rate : 30.303 FPS
Color space : YUV
Chroma subsampling : 4:2:0
Bit depth : 8 bits
Scan type : Progressive
Bits/(Pixel*Frame) : 0.078
Stream size : 2.71 GiB (94%)
Source stream size : 2.71 GiB (94%)

Audio
ID : 2
Format : AAC
Format/Info : Advanced Audio Codec
Format profile : LC
Codec ID : mp4a-40-2
Duration : 3 h 0 min
Source duration : 3 h 0 min
Bit rate mode : Variable
Bit rate : 126 kb/s
Maximum bit rate : 146 kb/s
Channel(s) : 2 channels
Channel positions : Front: L R
Sampling rate : 48.0 kHz
Frame rate : 46.875 FPS (1024 SPF)
Compression mode : Lossy
Stream size : 163 MiB (6%)
Source stream size : 163 MiB (6%)
Default : Yes
Image

Code: Select all

.:: RAPiDGATOR.::.
https://rapidgator.net/file/e2dc154951536eb349f5f006e6ec042e/EVOLVE.106.2018.06.23.720p.WEB.h264-iNDYHEEL.rar.html

.:: Keep2Share.::.
https://k2s.cc/file/a10092eebc26e/EVOLVE.106.2018.06.23.720p.WEB.h264-iNDYHEEL.rar

IntoTheRealm3
Posts: 41
Joined: 03 May 2017, 05:49

Re: EVOLVE.106.2018.06.23.720p.WEB.h264-iNDYHEEL

Post by IntoTheRealm3 » 24 Jun 2018, 17:23

Thanks!

Post Reply