PROGRESS.Wrestling.2017.12.30.Chapter.60.720p.WEB.h264-iNDYHEEL

Moderators: Rich666, PuroresuLove~!

Post Reply
User avatar
admin
Site Admin
Posts: 14859
Joined: 17 Sep 2013, 15:22

PROGRESS.Wrestling.2017.12.30.Chapter.60.720p.WEB.h264-iNDYHEEL

Post by admin » 06 Jan 2018, 11:00

PROGRESS.Wrestling.2017.12.30.Chapter.60.720p.WEB.h264-iNDYHEEL
Complete name : PROGRESS.Wrestling.2017.12.30.Chapter.60.720p.WEB.h264-iNDYHEEL.mp4
Format : MPEG-4
Format profile : Base Media
Codec ID : isom
File size : 3.84 GiB
Duration : 3h 24mn
Overall bit rate : 2 684 Kbps
Writing application : Lavf58.2.103

Video
ID : 1
Format : AVC
Format/Info : Advanced Video Codec
Codec ID : avc1
Codec ID/Info : Advanced Video Coding
Duration : 3h 24mn
Bit rate mode : Variable
Bit rate : 2 587 Kbps
Width : 1 280 pixels
Height : 720 pixels
Display aspect ratio : 16:9
Frame rate mode : Constant
Frame rate : 29.970 fps
Color space : YUV
Chroma subsampling : 4:2:0
Bit depth : 8 bits
Scan type : Progressive
Bits/(Pixel*Frame) : 0.094
Stream size : 3.70 GiB (96%)

Audio
ID : 2
Format : AAC
Format/Info : Advanced Audio Codec
Format profile : LC
Codec ID : 40
Duration : 3h 24mn
Bit rate mode : Variable
Bit rate : 90.7 Kbps
Maximum bit rate : 104 Kbps
Channel(s) : 2 channels
Channel positions : Front: L R
Sampling rate : 44.1 KHz
Compression mode : Lossy
Stream size : 133 MiB (3%)
Image

Code: Select all

.:: RAPiDGATOR.::.
https://rapidgator.net/file/d905f3d0ced827ea3d20402c5a546863/PROGRESS.Wrestling.2017.12.30.Chapter.60.720p.WEB.h264-iNDYHEEL.rar.html

.:: Keep2Share.::.
https://k2s.cc/file/e860f75368871/PROGRESS.Wrestling.2017.12.30.Chapter.60.720p.WEB.h264-iNDYHEEL.rar

Hello, if you enjoy browsing this site, please consider sending in a donation to help us pay for our monthly server costs.

Please private message me
BTC [BITCOIN].Thank you



Post Reply