RPW.2018.01.06.Live.At.The.Cockpit.24.720p.WEB.h264-iNDYHEEL

Moderators: Rich666, PuroresuLove~!

Post Reply
User avatar
admin
Site Admin
Posts: 14859
Joined: 17 Sep 2013, 15:22

RPW.2018.01.06.Live.At.The.Cockpit.24.720p.WEB.h264-iNDYHEEL

Post by admin » 10 Jan 2018, 09:31

RPW.2018.01.06.Live.At.The.Cockpit.24.720p.WEB.h264-iNDYHEEL
General
Complete name : D:\Torrent\RPW.2018.01.06.Live.At.The.Cockpit.24.720p.WEB.h264-iNDYHEEL.mp4
Format : MPEG-4
Format profile : Base Media
Codec ID : isom (isom/iso2/avc1/mp41)
File size : 2.67 GiB
Duration : 2 h 21 min
Overall bit rate mode : Variable
Overall bit rate : 2 696 kb/s
Writing application : Lavf58.2.103

Video
ID : 1
Format : AVC
Format/Info : Advanced Video Codec
Format profile : Baseline@L3
Format settings : 3 Ref Frames
Format settings, CABAC : No
Format settings, RefFrames : 3 frames
Format settings, GOP : M=1, N=10
Codec ID : avc1
Codec ID/Info : Advanced Video Coding
Duration : 2 h 21 min
Bit rate : 2 589 kb/s
Width : 1 280 pixels
Height : 720 pixels
Display aspect ratio : 16:9
Frame rate mode : Constant
Frame rate : 29.970 (30000/1001) FPS
Color space : YUV
Chroma subsampling : 4:2:0
Bit depth : 8 bits
Scan type : Progressive
Bits/(Pixel*Frame) : 0.094
Stream size : 2.57 GiB (96%)
Writing library : Zencoder Video Encoding System
Color range : Limited
Color primaries : BT.709
Transfer characteristics : BT.709
Matrix coefficients : BT.709

Audio
ID : 2
Format : AAC
Format/Info : Advanced Audio Codec
Format profile : LC
Codec ID : mp4a-40-2
Duration : 2 h 21 min
Bit rate mode : Variable
Bit rate : 99.5 kb/s
Maximum bit rate : 138 kb/s
Channel(s) : 2 channels
Channel positions : Front: L R
Sampling rate : 48.0 kHz
Frame rate : 46.875 FPS (1024 SPF)
Compression mode : Lossy
Stream size : 101 MiB (4%)
Default : Yes
Alternate group : 1
Image

Code: Select all

.:: RAPiDGATOR.::.
https://rapidgator.net/file/a94d3c740541b4660396679ef5644926/RPW.2018.01.06.Live.At.The.Cockpit.24.720p.WEB.h264-iNDYHEEL.rar.html

.:: Keep2Share.::.
https://k2s.cc/file/732d95a2f6159/RPW.2018.01.06.Live.At.The.Cockpit.24.720p.WEB.h264-iNDYHEEL.rar

Hello, if you enjoy browsing this site, please consider sending in a donation to help us pay for our monthly server costs.

Please private message me
BTC [BITCOIN].Thank you

MaGeol
Posts: 22
Joined: 10 Nov 2017, 07:14

Re: RPW.2018.01.06.Live.At.The.Cockpit.24.720p.WEB.h264-iNDYHEEL

Post by MaGeol » 10 Jan 2018, 20:58

Thank you! ^^

Post Reply