iMPACT.Wrestling.One.Night.Only.Collision.In.Oklahoma.2018.720p.WEB.h264-HEEL

Moderators: Rich666, PuroresuLove~!

Post Reply
User avatar
admin
Site Admin
Posts: 13960
Joined: 17 Sep 2013, 15:22

iMPACT.Wrestling.One.Night.Only.Collision.In.Oklahoma.2018.720p.WEB.h264-HEEL

Post by admin » 11 Jan 2018, 18:42

iMPACT.Wrestling.One.Night.Only.Collision.In.Oklahoma.2018.720p.WEB.h264-HEEL
General
Complete name : D:\Torrent\iMPACT.Wrestling.One.Night.Only.Collision.In.Oklahoma.2018.720p.WEB.h264-HEEL.mp4
Format : MPEG-4
Format profile : Base Media
Codec ID : isom (isom/iso2/avc1/mp41)
File size : 5.11 GiB
Duration : 2 h 40 min
Overall bit rate mode : Variable
Overall bit rate : 4 570 kb/s
Writing application : Lavf58.2.103

Video
ID : 1
Format : AVC
Format/Info : Advanced Video Codec
Format profile : High@L3.1
Format settings : 2 Ref Frames
Format settings, CABAC : No
Format settings, RefFrames : 2 frames
Codec ID : avc1
Codec ID/Info : Advanced Video Coding
Duration : 2 h 40 min
Duration_FirstFrame : 4 ms
Bit rate mode : Constant
Bit rate : 4 500 kb/s
Width : 1 280 pixels
Height : 720 pixels
Display aspect ratio : 16:9
Frame rate mode : Constant
Frame rate : 29.970 (30000/1001) FPS
Color space : YUV
Chroma subsampling : 4:2:0
Bit depth : 8 bits
Scan type : Progressive
Bits/(Pixel*Frame) : 0.163
Stream size : 5.03 GiB (98%)

Audio
ID : 2
Format : AAC
Format/Info : Advanced Audio Codec
Format profile : HE-AAC / LC
Format settings : Implicit
Codec ID : mp4a-40-2
Duration : 2 h 40 min
Bit rate mode : Variable
Bit rate : 62.8 kb/s
Maximum bit rate : 64.1 kb/s
Channel(s) : 2 channels
Channel positions : Front: L R
Sampling rate : 44.1 kHz / 22.05 kHz
Frame rate : 21.533 FPS (1024 SPF)
Compression mode : Lossy
Stream size : 71.9 MiB (1%)
Default : Yes
Alternate group : 1
Image

Code: Select all

.:: RAPiDGATOR.::.
https://rapidgator.net/file/e55696fcdd5a52e4201389e8071d403a/iMPACT.Wrestling.One.Night.Only.Collision.In.Oklahoma.2018.720p.WEB.h264-HEEL.part1.rar.html
https://rapidgator.net/file/2e39db2db6b11935d0ea2255b679dcd8/iMPACT.Wrestling.One.Night.Only.Collision.In.Oklahoma.2018.720p.WEB.h264-HEEL.part2.rar.html

.:: Keep2Share.::.
https://k2s.cc/file/9e8730d3a8f48/iMPACT.Wrestling.One.Night.Only.Collision.In.Oklahoma.2018.720p.WEB.h264-HEEL.part1.rar
https://k2s.cc/file/63f36ccbb621e/iMPACT.Wrestling.One.Night.Only.Collision.In.Oklahoma.2018.720p.WEB.h264-HEEL.part2.rar

Hello, if you enjoy browsing this site, please consider sending in a donation to help us pay for our monthly server costs.

Please private message me
Paypal only.Thank you


User avatar
Rich666
Posts: 365
Joined: 21 Apr 2014, 16:11

Re: iMPACT.Wrestling.One.Night.Only.Collision.In.Oklahoma.2018.720p.WEB.h264-HEEL

Post by Rich666 » 12 Jan 2018, 15:30

That file size is insane :P I managed to cut it in half and almost quarter the overall size, still looks good to me though. Thanks for the upload obviously!

Post Reply