Bellator 217 576i PDTV MPEG2-lulz

Moderators: Rich666, PuroresuLove~!

Post Reply
User avatar
admin
Site Admin
Posts: 17978
Joined: 17 Sep 2013, 15:22

Bellator 217 576i PDTV MPEG2-lulz

Post by admin » 24 Feb 2019, 07:35

Bellator 217 576i PDTV MPEG2-lulz

Image
apped from Sky Sports Action (SD) (Cable).

General
ID : 1 (0x1)
Complete name : E:\Bellator.217.576i.PDTV.MPEG2-lulz.ts
Format : MPEG-TS
File size : 5.94 GiB
Duration : 1 h 41 min
Overall bit rate mode : Variable
Overall bit rate : 8 353 kb/s

Video
ID : 601 (0x259)
Menu ID : 206 (0xCE)
Format : MPEG Video
Format version : Version 2
Format profile : Main@Main
Format settings : CustomMatrix / BVOP
Format settings, BVOP : Yes
Format settings, Matrix : Custom
Format settings, GOP : Variable
Format settings, picture structure : Frame
Codec ID : 2
Duration : 1 h 41 min
Bit rate mode : Variable
Bit rate : 7 811 kb/s
Maximum bit rate : 15.0 Mb/s
Width : 704 pixels
Height : 576 pixels
Display aspect ratio : 16:9
Active Format Description : Full frame 16:9 image
Frame rate : 25.000 FPS
Standard : PAL
Color space : YUV
Chroma subsampling : 4:2:0
Bit depth : 8 bits
Scan type : Interlaced
Scan order : Top Field First
Compression mode : Lossy
Bits/(Pixel*Frame) : 0.770
Time code of first frame : 00:00:00:00
Time code source : Group of pictures header
GOP, Open/Closed : Open
GOP, Open/Closed of first frame : Closed
Stream size : 5.56 GiB (94%)

Audio
ID : 611 (0x263)
Menu ID : 206 (0xCE)
Format : MPEG Audio
Format version : Version 1
Format profile : Layer 2
Codec ID : 3
Duration : 1 h 41 min
Bit rate mode : Constant
Bit rate : 128 kb/s
Channel(s) : 2 channels
Sampling rate : 48.0 kHz
Frame rate : 41.667 FPS (1152 SPF)
Compression mode : Lossy
Delay relative to video : 6 ms
Stream size : 93.3 MiB (2%)
Language : English
Image

Code: Select all

.:: RAPiDGATOR.::.
https://rapidgator.net/file/f1a9c48ea380bc7cb4d86ce728784c8d/Bellator.217.576i.PDTV.MPEG2-lulz.part3.rar
https://rapidgator.net/file/eb92dfb51c036d9c99127f89a0e2ec39/Bellator.217.576i.PDTV.MPEG2-lulz.part1.rar
https://rapidgator.net/file/cb2f46eddc4168ab673933187344a10b/Bellator.217.576i.PDTV.MPEG2-lulz.part2.rar

.:: Keep2Share.::.
https://k2s.cc/file/80bbd23d63972/Bellator.217.576i.PDTV.MPEG2-lulz.part1.rar
https://k2s.cc/file/45d3dc5429cab/Bellator.217.576i.PDTV.MPEG2-lulz.part2.rar
https://k2s.cc/file/e7eead1274445/Bellator.217.576i.PDTV.MPEG2-lulz.part3.rar

.:: IntoUpload [RESUME OK] ::.
http://linkshrink.net/7aJR5a
http://linkshrink.net/7bCaWF
http://linkshrink.net/7PsJQs

Hello, if you enjoy browsing this site, please consider sending in a donation to help us pay for our monthly server costs.


BTC [BITCOIN]

394nBuCYgNn6frsWHE4fFx6L29rYzPKFYB

Thank you

mrmarty
Posts: 118
Joined: 23 Apr 2017, 05:24

Re: Bellator 217 576i PDTV MPEG2-lulz

Post by mrmarty » 24 Feb 2019, 07:38

Thanks!!

Vixen
Posts: 50
Joined: 22 Mar 2015, 18:23

Re: Bellator 217 576i PDTV MPEG2-lulz

Post by Vixen » 24 Feb 2019, 20:22

Thanks mate

Post Reply