PBC Fight Night 2019 04 13 720p WEB-DL-MBC

Moderators: Rich666, PuroresuLove~!

Post Reply
User avatar
admin
Site Admin
Posts: 18462
Joined: 17 Sep 2013, 15:22

PBC Fight Night 2019 04 13 720p WEB-DL-MBC

Post by admin » 17 Apr 2019, 11:34

PBC Fight Night 2019 04 13 720p WEB-DL-MBC

Code: Select all

event: PBC Fight Night
Minneapolis Armory, Minneapolis, Minnesota, USA
date: 2019-04-13
source: WEB-DL
subtitles: en

note: commercials removed

Bout 1:
Sergiy Derevyanchenko
http://boxrec.com/en/boxer/691996
Jack Culcay
http://boxrec.com/en/boxer/518703

Bout 2:
Joey Spencer
http://boxrec.com/en/boxer/825172
Osias Vasquez
http://boxrec.com/en/boxer/738993

Bout 3:
Peter Quillin
http://boxrec.com/en/boxer/316441
Caleb Truax
http://boxrec.com/en/boxer/387857


- More Boxing Content -

Format                                   : Matroska
Format version                           : Version 4
File size                                : 3.04 GiB
Duration                                 : 2 h 5 min
Overall bit rate                         : 3 478 kb/s

Video
ID                                       : 1
Format                                   : AVC
Format/Info                              : Advanced Video Codec
Format profile                           : High@L4
Format settings                          : CABAC / 4 Ref Frames
Format settings, CABAC                   : Yes
Format settings, ReFrames                : 4 frames
Codec ID                                 : V_MPEG4/ISO/AVC
Duration                                 : 2 h 33 min
Bit rate mode                            : Constant
Bit rate                                 : 2 719 kb/s
Nominal bit rate                         : 3 372 kb/s
Width                                    : 1 280 pixels
Height                                   : 720 pixels
Display aspect ratio                     : 16:9
Frame rate mode                          : Variable
Frame rate                               : 24.405 FPS
Original frame rate                      : 29.970 (30000/1001) FPS
Color space                              : YUV
Chroma subsampling                       : 4:2:0
Bit depth                                : 8 bits
Scan type                                : Progressive
Bits/(Pixel*Frame)                       : 0.121
Stream size                              : 2.92 GiB (96%)
Default                                  : Yes
Forced                                   : No

Audio
ID                                       : 2
Format                                   : AAC LC
Format/Info                              : Advanced Audio Codec Low Complexity
Codec ID                                 : A_AAC-2
Duration                                 : 2 h 33 min
Bit rate                                 : 111 kb/s
Channel(s)                               : 2 channels
Channel layout                           : L R
Sampling rate                            : 48.0 kHz
Frame rate                               : 46.875 FPS (1024 SPF)
Compression mode                         : Lossy
Delay relative to video                  : 1 ms
Stream size                              : 122 MiB (4%)
Writing library                          : Lavc56.60.100 aac
Language                                 : English
Default                                  : Yes
Forced                                   : No

Image

Code: Select all

.:: RAPiDGATOR.::.
https://rapidgator.net/file/3f22128a93116e0b6df968e64cf0a434/Boxing.2019.04.13.PBC.Fight.Night.720p.WEB-DL-MBC.rar

.:: Keep2Share.::.
https://k2s.cc/file/f008873baed31/Boxing.2019.04.13.PBC.Fight.Night.720p.WEB-DL-MBC.rar

Hello, if you enjoy browsing this site, please consider sending in a donation to help us pay for our monthly server costs.


BTC [BITCOIN]

36fZ5ovphM3tsd7Ds5fNsRKLAmrsmMZfyi

Thank you

atahualpaFX
Posts: 407
Joined: 03 May 2015, 11:46

Re: PBC Fight Night 2019 04 13 720p WEB-DL-MBC

Post by atahualpaFX » 02 May 2019, 02:45

Thank you for sharing. :)

Post Reply