ROH.Saturday.Night.At.Center.Stage.2020.720p.WEB.x264-WH

Moderators: Rich666, PuroresuLove~!

Post Reply
User avatar
admin
Site Admin
Posts: 20616
Joined: 17 Sep 2013, 15:22

ROH.Saturday.Night.At.Center.Stage.2020.720p.WEB.x264-WH

Post by admin »

ROH.Saturday.Night.At.Center.Stage.2020.720p.WEB.x264-WH
General
Complete name : ROH.Saturday.Night.At.Center.Stage.2020.720p.WEB.x264-WH.mp4
Format : MPEG-4
Format profile : Base Media
Codec ID : isom
File size : 1.81 GiB
Duration : 2h 42mn
Overall bit rate : 1 599 Kbps
Writing application : Lavf56.15.102

Video
Format : AVC
Format/Info : Advanced Video Codec
Codec ID : avc1
Codec ID/Info : Advanced Video Coding
Duration : 2h 42mn
Duration_LastFrame : -8ms
Bit rate mode : Variable
Bit rate : 1 499 Kbps
Width : 1 280 pixels
Height : 720 pixels
Display aspect ratio : 16:9
Frame rate mode : Constant
Frame rate : 30.000 fps
Color space : YUV
Chroma subsampling : 4:2:0
Bit depth : 8 bits
Scan type : Progressive
Bits/(Pixel*Frame) : 0.054
Stream size : 1.69 GiB (94%)
Writing library : x264 core 142
Language : English

Audio
ID : 2
Format : AAC
Format/Info : Advanced Audio Codec
Format profile : LC
Codec ID : 40
Duration : 2h 42mn
Bit rate mode : Constant
Bit rate : 96.0 Kbps
Channel(s) : 2 channels
Channel positions : Front: L R
Sampling rate : 44.1 KHz
Compression mode : Lossy
Stream size : 111 MiB (6%)
Language : English
Image


.:: RAPiDGATOR.::.
https://rapidgator.net/file/7c873d62406 ... 264-WH.mp4

.:: Keep2Share.::.
https://k2s.cc/file/b81eb7c6e7c27/ROH.S ... 264-WH.mp4

Hello, if you enjoy browsing this site, please consider sending in a donation to help us pay for our monthly server costs.


BTC [BITCOIN]

3EiNNf6wUUWMAr3zsTjKyDLTpZXdHr6XLJ

Thank you

Post Reply